Corrida Contra o Destino (1997) Dublado PT-BR mp4 | Chicago Fire | RAW Begin Again 15 hours ago EP 4
Nasz serwis internetowy oraz podmioty z nim współpracujące takie jak reklamodawcy, firmy badające rynek, dostawcy usług oraz treści, korzystają z plików Cookies zapisywanych na Twoim urządzeniu w celach identyfikacyjnych, reklamowych oraz statystycznych. Dzięki temu możemy między innymi dostosować wygląd strony do indywidualnych potrzeb użytkowników. W przeglądarce internetowej możesz zmienić ustawienia dotyczące Cookies. Instrukcje zmiany ustawień dla najpopularniejszych przeglądarek znajdziesz tutaj: Chrome, Firefox, Internet Explorer, Opera i Safari. Jeżeli nie wyrażasz zgody na wykorzystywanie przez nas mechanizmu Cookies, wyłącz ich obsługę w ustawieniach swojej przeglądarki.
Więcej informacji możesz znaleźć w Informacje o plikach cookies.
Haszkod.pl - Strona główna
szukaj
| |


Underworld: Wojny krwi / Underworld: Blood Wars [HDCAM][2016][ENG]

Underworld: Wojny krwi / Underworld: Blood Wars [HDCAM][2016][ENG]
sprawność: 92%
Zdobądź lepszą rangę,
aby oceniać haszkody.

Pokaż hashcode

Zaloguj się!

Dopiero po utworzeniu konta w serwisie, możliwe jest korzystanie z zawartości.

Rejestracja!
Dodał: D_M
Należy pobrać przez: MailDownloader
Kategoria: Filmy Rozmiar: 1,25 GB
Podkategoria: Low Quality Pobrań: 87
Data dodania: 14-01-2017 15:10 Data premiery: 24 listopada 2016





Kompresja: WinRAR 5+

Hasło pobierania i archiwum: 3almnokia.com



Opis:
Selene walczy, by zakończyć trwającą od wieków wojnę między klanem Lykanów a frakcją wampirów, która ją zdradziła.

Napisy PL w paczce


Video
Format : AVI
Duration : 1 h 21 min
Bit rate : 1 890 kb/s
Width : 720 pixels
Height : 384 pixels
Display aspect ratio : 1.85:1
Frame rate : 29.970 FPS
Stream size : 1.08 GiB (93%)

Audio #1
Format : MP3
Bit rate : 127 kb/s
Channel(s) : 2 channels
Stream size : 74.2 MiB (6%)







ostatnia modyfikacja: 14 stycznia 2017, 15:12 (//)
Inne podobne haszkody dostępne w serwisie:
NazwaKategoriaSprawnośćRozmiarDodano
Underworld: Wojny krwi / Underworld: Blood Wa..Filmy94%8,50 GB19-03-2017
Underworld: Wojny Krwi / Underworld Blood War..Filmy90%11,26 GB23-06-2017
Underworld: Wojny krwi / Underworld: Blood Wa..Filmy99%1,82 GB11-04-2017
Underworld: Wojny krwi [NAPISY PL][720p][WEB..Filmy99%2,48 GB17-02-2017
Underworld: Przebudzenie / Underworld: Awaken..Filmy95%11,48 GB23-02-2017
Dodaj komentarz:
Zasady pisania komentarzy w serwisie Haszkod.pl :
  • Zakaz podawania adresów stron o podobnej tematyce.
  • Zakaz wklejania linków do alternatywnej metody ściągnięcia tej samej rzeczy.
  • Zakaz składania próśb o upload, jest do tego specjalny dział.
  • Zakaz wklejania hashcodów w treści komentarzy.
Wypowiedzi w komentarzach powinny być formułowane w sposób uprzejmy, z poszanowaniem innych użytkowników i ich stanowisk.

Autor:
Treść:

+ - | b u i

Możesz jeszcze wpisać: znaków.

Żaden z plików nie znajduje się na serwerze. Hashcody są własnością użytkowników. Administrator serwisu nie może ponieść konsekwencji za to co użytkownicy wstawiają lub za to co czynią na stronie.
Nie możesz używać tego serwisu do rozpowszechniania lub ściągania materiałów do których nie masz odpowiednich praw lub licencji. Użytkownicy odpowiedzialni są za przestrzeganie tych zasad.