Attack Attack! - This Means War - 2012 | wintohdd | By Any Means 2017 WEB-DL x264-FGT
Nasz serwis internetowy oraz podmioty z nim współpracujące takie jak reklamodawcy, firmy badające rynek, dostawcy usług oraz treści, korzystają z plików Cookies zapisywanych na Twoim urządzeniu w celach identyfikacyjnych, reklamowych oraz statystycznych. Dzięki temu możemy między innymi dostosować wygląd strony do indywidualnych potrzeb użytkowników. W przeglądarce internetowej możesz zmienić ustawienia dotyczące Cookies. Instrukcje zmiany ustawień dla najpopularniejszych przeglądarek znajdziesz tutaj: Chrome, Firefox, Internet Explorer, Opera i Safari. Jeżeli nie wyrażasz zgody na wykorzystywanie przez nas mechanizmu Cookies, wyłącz ich obsługę w ustawieniach swojej przeglądarki.
Więcej informacji możesz znaleźć w Informacje o plikach cookies.
Haszkod.pl - Strona główna
szukaj
| |


Kot Bob i Ja / A Street Cat Named Bob [1080p][2016][Lektor PL]

Kot Bob i Ja / A Street Cat Named Bob [1080p][2016][Lektor PL]
sprawność: 88%
Zdobądź lepszą rangę,
aby oceniać haszkody.

Pokaż hashcode

Zaloguj się!

Dopiero po utworzeniu konta w serwisie, możliwe jest korzystanie z zawartości.

Rejestracja!
Dodał: D_M
Należy pobrać przez: MailDownloader
Kategoria: Filmy Rozmiar: 8,61 GB
Podkategoria: 1080p / 720p Pobrań: 26
Data dodania: 18-06-2017 16:57 Data premiery: 03 listopada 2016





Kompresja: WinRAR 5+

Hasło pobierania i archiwum: 3almnokia.com



Opis:
James Bowen, uzależniony od narkotyków uliczny grajek, spotyka kota, który pomoże mu na wiele sposobów.




Video
Format : Matroska
Duration : 1 h 42 min
Bit rate : 9 559 kb/s
Width : 1 920 pixels
Height : 808 pixels
Display aspect ratio : 2.40:1
Frame rate : 23.976 FPS
Stream size : 6.86 GiB (82%)

Audio #1
Format : DTS
Bit rate : 1 509 kb/s
Channel(s) : 6 channels
Stream size : 1.08 GiB (13%)
Language : Polish

Audio #2
Format : AC-3
Bit rate : 640 kb/s
Channel(s) : 6 channels
Stream size : 471 MiB (5%)
Language : Polish









ostatnia modyfikacja: 20 czerwca 2017, 16:57 (//)
Inne podobne haszkody dostępne w serwisie:
NazwaKategoriaSprawnośćRozmiarDodano
Jay i Cichy Bob kontratakują / Jay and Silent..Archiwum97%700 MB20-01-2013
Bob one[2008][PL]Muzyka67%79 MB29-11-2010
BoB One Jeden[2008][PL]Muzyka96%81 MB01-01-2011
Bob marley, dyskografiaMuzyka90%962 MB21-02-2010
Bob Marley - Confrontation[1983]Muzyka50%32 MB20-02-2010
Najwyżej ocenionione komentarze:
dzięki :)

1

1 0

18.06.2017
Komentarze użytkowników:
dzięki :)

1

1 0

18.06.2017
Żaden z plików nie znajduje się na serwerze. Hashcody są własnością użytkowników. Administrator serwisu nie może ponieść konsekwencji za to co użytkownicy wstawiają lub za to co czynią na stronie.
Nie możesz używać tego serwisu do rozpowszechniania lub ściągania materiałów do których nie masz odpowiednich praw lub licencji. Użytkownicy odpowiedzialni są za przestrzeganie tych zasad.