Enviando temporadas enteras | I Still Love You - TheOvertunes | Tierra De Cárteles (2015)
Nasz serwis internetowy oraz podmioty z nim współpracujące takie jak reklamodawcy, firmy badające rynek, dostawcy usług oraz treści, korzystają z plików Cookies zapisywanych na Twoim urządzeniu w celach identyfikacyjnych, reklamowych oraz statystycznych. Dzięki temu możemy między innymi dostosować wygląd strony do indywidualnych potrzeb użytkowników. W przeglądarce internetowej możesz zmienić ustawienia dotyczące Cookies. Instrukcje zmiany ustawień dla najpopularniejszych przeglądarek znajdziesz tutaj: Chrome, Firefox, Internet Explorer, Opera i Safari. Jeżeli nie wyrażasz zgody na wykorzystywanie przez nas mechanizmu Cookies, wyłącz ich obsługę w ustawieniach swojej przeglądarki.
Więcej informacji możesz znaleźć w Informacje o plikach cookies.
Haszkod.pl - Strona główna
szukaj
| |


Doctor Who [S10E00-10][2017][ENG]

Doctor Who [S10E00-10][2017][ENG]
sprawność: 50%
Zdobądź lepszą rangę,
aby oceniać haszkody.

Pokaż hashcode

Zaloguj się!

Dopiero po utworzeniu konta w serwisie, możliwe jest korzystanie z zawartości.

Rejestracja!
Dodał: D_M
Należy pobrać przez: MailDownloader
Kategoria: Filmy Rozmiar: 4,15 GB
Podkategoria: Odcinki Pobrań: 5
Data dodania: 19-06-2017 02:46 Data premiery: 2017





Kompresja: WinRAR 5+

Hasło pobierania i archiwum: 3almnokia.com



Opis:
Doktor to ostatni z Władców Czasu, zamieszkujących niegdyś planetę Gallifrey. Podróżuje w czasie i przestrzeni statkiem kosmicznym - budką policyjną TARDIS, ze swoimi ziemskimi towarzyszami.

Napisy PL w paczce



Video
Format : AVI
Duration : 1 h 0 min
Bit rate : 900 kb/s
Width : 640 pixels
Height : 360 pixels
Display aspect ratio : 16:9
Frame rate : 23.976 FPS
Stream size : 389 MiB (87%)

Audio
Format : MP3
Bit rate : 128 kb/s
Channel(s) : 2 channelss
Stream size : 55.3 MiB (12%)









ostatnia modyfikacja: 20 czerwca 2017, 16:56 (//)
Inne podobne haszkody dostępne w serwisie:
NazwaKategoriaSprawnośćRozmiarDodano
Doctor Who [Sezon 4][2008][Lektor PL]Filmy80%4,75 GB06-11-2011
Doctor Who [Sezon 5][2010][ENG]Filmy80%4,81 GB23-11-2011
Doctor Who [Sezon 1][2005][Lektor PL]Filmy92%5,97 GB30-03-2014
Doctor Who[Sezon 7][Odcinek 9][2013][ENG]Filmy50%371 MB26-04-2013
Doctor Who[Sezon 7][Odcinek 8][2013][ENG]Filmy50%355 MB26-04-2013
Dodaj komentarz:
Zasady pisania komentarzy w serwisie Haszkod.pl :
  • Zakaz podawania adresów stron o podobnej tematyce.
  • Zakaz wklejania linków do alternatywnej metody ściągnięcia tej samej rzeczy.
  • Zakaz składania próśb o upload, jest do tego specjalny dział.
  • Zakaz wklejania hashcodów w treści komentarzy.
Wypowiedzi w komentarzach powinny być formułowane w sposób uprzejmy, z poszanowaniem innych użytkowników i ich stanowisk.

Autor:
Treść:

+ - | b u i

Możesz jeszcze wpisać: znaków.

Żaden z plików nie znajduje się na serwerze. Hashcody są własnością użytkowników. Administrator serwisu nie może ponieść konsekwencji za to co użytkownicy wstawiają lub za to co czynią na stronie.
Nie możesz używać tego serwisu do rozpowszechniania lub ściągania materiałów do których nie masz odpowiednich praw lub licencji. Użytkownicy odpowiedzialni są za przestrzeganie tych zasad.